For My Brother 2014

In this video

For My Brother 2014
For Min Brors Skyld (original title)
1h 57min | Drama | 8 December 2014 (Denmark)

Storyline

The two brothers Aske (17 years old) and Bastian (12 years old) live with their father, Lasse. Their mother died seven years earlier. Every day they live in a world where fear, violence and alcohol are huge factors, but where the brothers’ strong and close relationship means everything. Aske’s fight for survival means that he has to serve his father’s sexual needs, which include abuse from the father, but also from paying customers and the father’s friend Hans (who has a lot of contacts in the pedophile environment). Aske tries everything to keep his little brother out of it all so that he won’t experience the same as himself. But one day Bastian is abused by their father and Aske’s entire world is about to fall apart. The brothers choose to move to Norway, far away in the beautiful mountains. Their friendship outshines everything! They are together and far away from their evil father… Yet one morning everything is turned upside down and suddenly their fate from home is brought to …

User review:

This is a riveting film that I had difficulty tearing myself away from and am having difficulty forgetting. It starts with a young boy being rented to his father’s brother to be abused and doesn’t get any brighter, except for a couple of episodes where the brothers are interacting. The actors are all excellent, particularly the young man playing Aske, at the center of the film.

The whole film has a sense of inevitability, as though Aske has no way to change his circumstances. The change that does come is fleeting. The world of the film is unforgiving with only small moments of kindness and love.

Director: Brian Bang
Writer: Brian Bang
Stars: Elias Munk, Christopher Friis Jensen, Allan Karlsen

Format : MPEG-4
Format profile : Base Media / Version 2
Codec ID : mp42 (isom/iso2/avc1/mp41)
File size : 5.55 GiB
Duration : 1h 57mn
Overall bit rate mode : Variable
Overall bit rate : 6 768 Kbps

English subtitle (.srt)


Updated movie source is Better quality Full HD mkv

Info:

Format : Matroska
Format version : Version 2
File size : 7.65 GiB
Duration : 1h 57mn
Overall bit rate : 9 334 Kbps
Encoded date : UTC 2016-05-17 21:52:20
Writing application : mkvmerge v9.1.0 (‘Little Earthquakes’) 32bit
Writing library : libebml v1.3.3 + libmatroska v1.4.4

Video
ID : 1
Format : AVC
Format/Info : Advanced Video Codec
Format profile : [email protected]
Format settings, CABAC : Yes
Format settings, ReFrames : 4 frames
Codec ID : V_MPEG4/ISO/AVC
Duration : 1h 57mn
Bit rate : 8 693 Kbps
Width : 1 920 pixels
Height : 1 040 pixels
Display aspect ratio : 1.85:1
Frame rate mode : Constant
Frame rate : 25.000 fps
Color space : YUV
Chroma subsampling : 4:2:0
Bit depth : 8 bits
Scan type : Progressive
Bits/(Pixel*Frame) : 0.174
Stream size : 7.13 GiB (93%)
Writing library : x264 core 148 r2692 64f4e24
Encoding settings : cabac=1 / ref=4 / deblock=1:0:0 / analyse=0x3:0x113 / me=umh / subme=7 / psy=1 / psy_rd=1.00:0.00 / mixed_ref=1 / me_range=16 / chroma_me=1 / trellis=1 / 8x8dct=1 / cqm=0 / deadzone=21,11 / fast_pskip=1 / chroma_qp_offset=-2 / threads=6 / lookahead_threads=1 / sliced_threads=0 / nr=0 / decimate=1 / interlaced=0 / bluray_compat=0 / constrained_intra=0 / bframes=3 / b_pyramid=2 / b_adapt=1 / b_bias=0 / direct=1 / weightb=0 / open_gop=0 / weightp=2 / keyint=250 / keyint_min=25 / scenecut=40 / intra_refresh=0 / rc_lookahead=40 / rc=2pass / mbtree=0 / bitrate=8693 / ratetol=1.0 / qcomp=0.60 / qpmin=10 / qpmax=51 / qpstep=4 / cplxblur=20.0 / qblur=0.5 / vbv_maxrate=62500 / vbv_bufsize=78125 / nal_hrd=none / filler=0 / ip_ratio=1.40 / pb_ratio=1.30 / aq=1:1.00
Language : English
Default : Yes
Forced : No

Audio
ID : 2
Format : AC-3
Format/Info : Audio Coding 3
Mode extension : CM (complete main)
Format settings, Endianness : Big
Codec ID : A_AC3
Duration : 1h 57mn
Bit rate mode : Constant
Bit rate : 640 Kbps
Channel(s) : 6 channels
Channel positions : Front: L C R, Side: L R, LFE
Sampling rate : 48.0 KHz
Frame rate : 31.250 fps (1536 spf)
Compression mode : Lossy
Stream size : 537 MiB (7%)
Language : Danish
Default : Yes
Forced : No

Text
ID : 3
Format : UTF-8
Codec ID : S_TEXT/UTF8
Codec ID/Info : UTF-8 Plain Text
Duration : 1h 52mn
Bit rate : 26 bps
Count of elements : 778
Stream size : 22.1 KiB (0%)
Language : English
Default : Yes
Forced : Yes

(Visited 28031 times, 79 visits today)

About The Author

teq0x I love to share boyhood movies and gay themed movies with everyone. Don't hesitate to contact me if you want!

You might be interested in

LEAVE YOUR COMMENT

Your email address will not be published. Required fields are marked *